<?xml version="1.0" standalone="no"?>
<!DOCTYPE svg PUBLIC "-//W3C//DTD SVG 1.1//EN" "http://www.w3.org/Graphics/SVG/1.1/DTD/svg11.dtd" >
<svg xmlns="http://www.w3.org/2000/svg">
<metadata>
This is a custom SVG webfont generated by Font Squirrel.
</metadata>
<defs>
<font id="webfontVwo4Hprq" horiz-adv-x="569" >
<font-face units-per-em="1000" ascent="800" descent="-200" />
<missing-glyph horiz-adv-x="225" />
<glyph unicode=" "  horiz-adv-x="225" />
<glyph unicode="&#x09;" horiz-adv-x="225" />
<glyph unicode="&#xa0;" horiz-adv-x="225" />
<glyph unicode="!" horiz-adv-x="274" d="M168 210h-70l-23 477l115 17zM133 -8q-27 0 -45.5 19.5t-18.5 48t18.5 47t45.5 18.5t47 -19t20 -46.5t-20 -47.5t-47 -20z" />
<glyph unicode="&#x22;" horiz-adv-x="519" d="M133 453v256h85v-256h-85zM312 453v256h85v-256h-85z" />
<glyph unicode="#" horiz-adv-x="558" d="M491 279v-68h-103l-30 -211h-72l29 211h-122l-29 -211h-72l29 211h-91v68h101l20 151h-92v69h102l29 209h72l-29 -209h122l29 209h72l-29 -209h94v-69h-103l-21 -151h94zM224 430l-21 -151h122l21 151h-122z" />
<glyph unicode="$" horiz-adv-x="568" d="M311 -102h-62v90q-114 0 -213 60l38 75q90 -56 175 -56v250l-36 12q-44 14 -71 30t-54.5 48.5t-27.5 105t50.5 125t138.5 66.5v80h62v-79q95 0 188 -65l-43 -68q-83 52 -145 52v-214l39 -12q82 -24 125 -74.5t43 -126t-59 -134.5t-148 -72v-93zM249 620q-82 -21 -82 -99 q0 -62 82 -95v194zM381.5 111.5q27.5 30.5 27.5 72.5q0 85 -98 114v-227q43 10 70.5 40.5z" />
<glyph unicode="%" horiz-adv-x="833" d="M315.5 402.5q-44.5 -45.5 -121 -45.5t-119.5 45t-43 123.5t44 124.5t120.5 46t120 -45.5t43.5 -124t-44.5 -124zM195 639q-86 0 -86 -108q0 -64 21 -90.5t67 -26.5q86 0 86 107q0 64 -21.5 91t-66.5 27zM757.5 37.5q-44.5 -45.5 -121 -45.5t-119.5 45t-43 123.5t44 124.5 t120.5 46t120 -45.5t43.5 -124t-44.5 -124zM637 274q-86 0 -86 -108q0 -64 21 -90.5t67 -26.5q86 0 86 107q0 64 -21.5 91t-66.5 27zM282 1h-68l340 686h69z" />
<glyph unicode="&#x26;" horiz-adv-x="694" d="M488 61q-66 -75 -186.5 -75t-181.5 51.5t-61 124t34 111t104 74.5q-50 40 -72 75t-22 79q0 68 51 114t131.5 46t134 -41t53.5 -105.5t-39 -103.5t-102 -68l149 -148q19 44 19 135h76q0 -75 -7.5 -115.5t-26.5 -81.5l131 -131h-125zM349 571q-25 25 -62.5 25t-62.5 -22 t-25 -57q0 -62 82 -127q93 45 93 117q0 39 -25 64zM159 171q0 -53 36.5 -84.5t90.5 -31.5q105 0 150 58l-189 186q-88 -47 -88 -128z" />
<glyph unicode="'" horiz-adv-x="283" d="M98 453v256h85v-256h-85z" />
<glyph unicode="(" horiz-adv-x="328" d="M97.5 174.5q-9.5 75.5 -9.5 152t10 145.5t40 125q69 128 185 178l23 -48q-108 -73 -136 -169.5t-28 -194.5t6 -170.5t26 -134.5q39 -123 134 -169l-24 -48q-67 26 -117.5 78t-75 116t-34 139.5z" />
<glyph unicode=")" horiz-adv-x="328" d="M136 190q7 70 7 135t-6.5 120t-21.5 110t-46 93.5t-91 78.5l23 48q60 -26 108 -75t77 -104q51 -95 51 -274t-36 -265q-69 -165 -201 -216l-24 48q139 68 160 301z" />
<glyph unicode="*" horiz-adv-x="454" d="M192 708h68v-148l139 47l21 -67l-138 -47l87 -121l-56 -44l-89 125l-85 -123l-56 43l87 120l-140 48l22 68l140 -50v149z" />
<glyph unicode="+" horiz-adv-x="535" d="M311 227v-193h-85v193h-190v87h190v193h85v-193h190v-87h-190z" />
<glyph unicode="," horiz-adv-x="267" d="M97 -65q19 22 19 36.5t-11.5 21.5t-22.5 13q-30 16 -30 51.5t21 57.5t54.5 22t57 -28.5t23.5 -80.5t-35 -99.5t-90 -71.5l-32 45q27 11 46 33z" />
<glyph unicode="-" horiz-adv-x="312" d="M55 225v91h203v-91h-203z" />
<glyph unicode="." horiz-adv-x="265" d="M203 61q0 -31 -20 -53t-51 -22t-51 22t-20 53t20 53t51 22t51 -22t20 -53z" />
<glyph unicode="/" horiz-adv-x="457" d="M131 -149h-68l260 910h68z" />
<glyph unicode="0" horiz-adv-x="538" d="M433.5 57.5q-61.5 -71.5 -165.5 -71.5t-164 71t-60 193t61.5 193.5t165 71.5t164 -71.5t60.5 -193t-61.5 -193zM268 444q-125 0 -125 -183q0 -111 31 -157.5t97 -46.5q125 0 125 183q0 111 -31 157.5t-97 46.5z" />
<glyph unicode="1" horiz-adv-x="411" d="M94 0v74h98v332q-58 -38 -132 -66l-22 48l177 125h67v-439h88v-74h-276z" />
<glyph unicode="2" horiz-adv-x="537" d="M70 0v81l130 95q81 60 115.5 97t34.5 85q0 83 -101 83q-48 0 -84.5 -20.5t-64.5 -42.5l-45 51q106 93 220 93q81 0 131.5 -40.5t50.5 -113t-55.5 -125.5t-105.5 -88l-117 -82l103 3h196l-19 -76h-389z" />
<glyph unicode="3" horiz-adv-x="528" d="M445 354q0 -110 -121 -150q62 -16 100 -58t38 -104t-48 -116q-97 -109 -293 -109h-18q-18 0 -42 4l-20 62q20 -4 65.5 -4t101.5 12.5t102 57.5t46 110q0 37 -19 64t-45 36q-42 14 -118 14l-23 -1v71l24 -1h43q17 0 44.5 3.5t54 27.5t26.5 68.5t-29.5 72t-75.5 27.5 t-77.5 -12.5t-81.5 -42.5l-44 52q43 35 100.5 57.5t112.5 22.5q87 0 142 -46t55 -118z" />
<glyph unicode="4" horiz-adv-x="538" d="M420 10q3 -21 3 -35v-145l-89 -19v161l1 37l-41 -1h-257v69l215 444h98l-171 -354l-28 -54q-12 -22 -20 -32l39 3h124l43 -1l-2 29l5 97l11 131l72 20v-191l-1 -55l-1 -31l35 1h44v-76h-48z" />
<glyph unicode="5" horiz-adv-x="525" d="M175 242q28 5 64 5q90 0 147.5 -51t57.5 -149t-84.5 -166t-210.5 -68q-37 0 -72 9l-18 67q36 -13 78 -13q88 0 147.5 50.5t59.5 117t-37 99.5t-105.5 33t-127.5 -22l32 347h306l-14 -78h-207z" />
<glyph unicode="6" horiz-adv-x="542" d="M158 354q58 52 138.5 52t140.5 -55.5t60 -147t-63.5 -155t-162 -63.5t-162.5 76t-64 188.5t45.5 198t130.5 154.5t194 101l21 -62q-49 -15 -102 -48t-88 -71q-58 -63 -88 -168zM363.5 299.5q-32.5 34.5 -89.5 34.5t-121 -46q-3 -27 -3 -45v-13q0 -86 32 -130t89.5 -44 t91 39.5t33.5 104.5t-32.5 99.5z" />
<glyph unicode="7" horiz-adv-x="510" d="M380 426q-17 -5 -83 -5h-255l21 80h410l-19 -88l-81 -126q-47 -76 -96 -190q-75 -179 -93 -259l-108 -29q33 167 138 363q87 162 166 254z" />
<glyph unicode="8" horiz-adv-x="552" d="M484 512q0 -108 -140 -157q57 -19 96 -50.5t53 -58t14 -65.5q0 -86 -66.5 -142t-170.5 -56t-166.5 51.5t-62.5 125.5q0 133 138 185q-58 24 -87 65.5t-29 88.5q0 78 58.5 124.5t154 46.5t152 -43.5t56.5 -114.5zM357 579q-31 25 -85.5 25t-85.5 -26t-31 -66.5t29.5 -69 t96.5 -55.5q107 56 107 123q0 44 -31 69zM164 255q-24 -30 -24 -83t37 -87t97.5 -34t96.5 31t36 80t-25 71q-35 32 -147 79q-47 -27 -71 -57z" />
<glyph unicode="9" horiz-adv-x="542" d="M240 80q-87 0 -144.5 60.5t-57.5 155t65 159.5t162.5 65t158.5 -68t61 -172q0 -196 -140 -342q-52 -54 -120.5 -91.5t-133.5 -51.5l-48 54q45 9 102.5 38.5t98.5 65.5q77 67 114 167q-58 -40 -118 -40zM351 403q-33 46 -89 46t-89 -42t-33 -110.5t31 -106.5t88.5 -38 t114.5 50q10 43 10 77q0 78 -33 124z" />
<glyph unicode=":" horiz-adv-x="303" d="M150 302q-30 0 -50 20t-20 50.5t20.5 52t49.5 21.5t50 -21t21 -50.5t-20.5 -51t-50.5 -21.5zM200 9q-21 -21 -50.5 -21t-49.5 20t-20 51t20.5 52.5t50 21.5t50 -21.5t20.5 -51.5t-21 -51z" />
<glyph unicode=";" horiz-adv-x="305" d="M119 -65q19 22 19 36.5t-11.5 21.5t-22.5 13q-30 16 -30 51.5t21 57.5t54.5 22t57 -28.5t23.5 -80.5t-35 -99.5t-90 -71.5l-32 45q27 11 46 33zM195.5 322.5q-20.5 -21.5 -50 -21.5t-50.5 21t-21 51t20 51t50 21t51 -21t21 -50.5t-20.5 -51z" />
<glyph unicode="&#x3c;" horiz-adv-x="1190" d="M1141 262q-16 -17 -40 -17t-41 17t-17 40t17 40t40 17t40 -17t17 -40t-16 -40zM932 245q-23 0 -40 17t-17 40t16 40t40 17t41 -17t17 -40t-17 -40t-40 -17zM763 245q-23 0 -40 17t-17 40t16 40t40 17t41 -17t17 -40t-17 -40t-40 -17zM387 636q-17 -17 -40.5 -17t-40 16.5 t-16.5 40t16 40.5t40 17t41 -17t17 -40t-17 -40zM635 262q-16 -17 -40 -17t-41 17t-17 40t17 40t40 17t40 -17t17 -40t-16 -40zM301 511q-16 -17 -40 -17t-41 17t-17 40t17 40t40.5 17t40 -16.5t16.5 -40t-16 -40.5zM466 262q-16 -17 -40 -17t-41 17t-17 40t17 40t40 17 t40 -17t17 -40t-16 -40zM214.5 386.5q-16.5 -16.5 -40 -16.5t-40.5 16t-17 40t17 41t40 17t40 -17t17 -40.5t-16.5 -40zM257 245q-23 0 -40 17t-17 40t16 40t40 17t41 -17t17 -40t-17 -40t-40 -17zM88 245q-23 0 -40 17t-17 40t16 40t40 17t41 -17t17 -40t-17 -40t-40 -17z M215 137q-16 -17 -40 -17t-41 17t-17 40t17 40t40.5 17t40 -16.5t16.5 -40t-16 -40.5zM300.5 12.5q-16.5 -16.5 -40 -16.5t-40.5 16t-17 40t17 41t40 17t40 -17t17 -40.5t-16.5 -40zM347 -129q-23 0 -40 17t-17 40.5t16.5 40t40 16.5t40.5 -16t17 -40t-17 -41t-40 -17z" />
<glyph unicode="=" horiz-adv-x="666" d="M70 350v83h525v-83h-525zM70 175v83h525v-83h-525z" />
<glyph unicode="&#x3e;" horiz-adv-x="1190" d="M47 342q16 17 40 17t41 -17t17 -40t-17 -40t-40 -17t-40 17t-17 40t16 40zM256 359q23 0 40 -17t17 -40t-16 -40t-40 -17t-41 17t-17 40t17 40t40 17zM425 359q23 0 40 -17t17 -40t-16 -40t-40 -17t-41 17t-17 40t17 40t40 17zM841 733q23 0 40 -17t17 -40.5t-16.5 -40 t-40 -16.5t-40.5 16t-17 40t17 41t40 17zM553 342q16 17 40 17t41 -17t17 -40t-17 -40t-40 -17t-40 17t-17 40t16 40zM887.5 591.5q16.5 16.5 40 16.5t40.5 -16t17 -40t-17 -41t-40 -17t-40 17t-17 40.5t16.5 40zM722 342q16 17 40 17t41 -17t17 -40t-17 -40t-40 -17t-40 17 t-17 40t16 40zM973 467q16 17 40 17t41 -17t17 -40t-17 -40t-40.5 -17t-40 16.5t-16.5 40t16 40.5zM931 359q23 0 40 -17t17 -40t-16 -40t-40 -17t-41 17t-17 40t17 40t40 17zM1100 359q23 0 40 -17t17 -40t-16 -40t-40 -17t-41 17t-17 40t17 40t40 17zM973.5 217.5 q16.5 16.5 40 16.5t40.5 -16t17 -40t-17 -41t-40 -17t-40 17t-17 40.5t16.5 40zM887 93q16 17 40 17t41 -17t17 -40t-17 -40t-40.5 -17t-40 16.5t-16.5 40t16 40.5zM801 -32q17 17 40.5 17t40 -16.5t16.5 -40t-16 -40.5t-40 -17t-41 17t-17 40t17 40z" />
<glyph unicode="?" horiz-adv-x="444" d="M268 598q-26 22 -76 22t-114 -44l-39 60q31 27 80 45.5t111.5 18.5t109 -41.5t46.5 -100t-22 -92.5t-66 -66.5t-58 -66.5t-14 -77l4 -31h-79l-4 21q-3 21 -3 40q0 81 67 142l55 45q28 27 28 65t-26 60zM250 9q-21 -22 -49.5 -22t-48.5 21t-20 51t19.5 49.5t49 19.5 t50 -19.5t20.5 -48.5t-21 -51z" />
<glyph unicode="@" horiz-adv-x="800" d="M252.5 481q60.5 78 148 78t116.5 -72h6l14 56h70l-66 -248l-6 -31q-3 -15 -3 -27q0 -27 28 -27q45 0 84.5 59t39.5 139q0 118 -78.5 188t-200.5 70t-207 -90t-85 -223t88.5 -221.5t217.5 -88.5q67 0 127.5 27t101.5 73h73q-50 -75 -130.5 -117.5t-174.5 -42.5 q-157 0 -266 107t-109 264t109 265t256 108t247.5 -87t100.5 -220t-75.5 -206t-150.5 -73q-29 0 -48 17t-19 46h-7q-54 -63 -120 -63t-104 45t-38 114q0 103 60.5 181zM412 492q-60 0 -101 -58.5t-41 -113t22 -82.5t62 -28q61 0 100.5 60.5t39.5 112.5t-23.5 80.5 t-58.5 28.5z" />
<glyph unicode="A" d="M460 0l-61 195h-239l-60 -195h-100l226 690h120l222 -690h-108zM285 594h-6q-12 -45 -48 -166.5t-47 -152.5h194q-6 15 -45.5 148.5t-47.5 170.5z" />
<glyph unicode="B" horiz-adv-x="602" d="M300 0h-210v689h146q90 0 123.5 -4t96.5 -37.5t63 -128.5q0 -115 -125 -152q76 -17 115 -63t39 -115.5t-38 -114.5q-60 -74 -210 -74zM278 608h-94v-210h109q46 0 65.5 8t33.5 26q23 31 23 69t-18 64.5t-44.5 34.5t-74.5 8zM296 318h-111v-240h136q49 0 85 30.5t36 81.5 t-21 83t-50.5 38.5t-74.5 6.5z" />
<glyph unicode="C" horiz-adv-x="549" d="M247 95.5q45 -28.5 108.5 -28.5t119.5 43l47 -63q-80 -57 -186 -57q-133 0 -211 99.5t-78 249.5q0 62 11 111.5t42 109t95.5 101t156 41.5t157.5 -54l-47 -63q-54 40 -122 40q-103 0 -144.5 -82.5t-41.5 -201.5q0 -56 5.5 -93t24 -80.5t63.5 -72z" />
<glyph unicode="D" horiz-adv-x="632" d="M262 0h-172v689h160q93 0 152 -25t113 -99.5t54 -220.5q0 -157 -75 -251q-38 -47 -91.5 -70t-140.5 -23zM266 612h-78v-533h76q61 0 99.5 17.5t68.5 72.5t30 148t-10.5 145t-39 87.5t-61.5 49t-85 13.5z" />
<glyph unicode="E" horiz-adv-x="516" d="M90 0v689h375l-13 -79h-265v-210h222v-81h-221v-236h288v-83h-386z" />
<glyph unicode="F" horiz-adv-x="456" d="M187 610v-209h204v-78h-204v-323h-97v689h359l-13 -79h-249z" />
<glyph unicode="G" horiz-adv-x="629" d="M269.5 82.5q39.5 -16.5 89.5 -16.5t98 26v196h-127l-16 79h238v-322q-88 -55 -215 -55t-207 93t-80 258q0 102 29.5 175.5t95.5 127.5t174.5 54t187.5 -69l-46 -60q-72 52 -135.5 52t-100.5 -21t-59.5 -68t-30 -88.5t-7.5 -107.5q0 -144 36 -190.5t75.5 -63z" />
<glyph unicode="H" horiz-adv-x="635" d="M448 0v327h-263v-327h-95v689h95v-283h263v283h97v-689h-97z" />
<glyph unicode="I" horiz-adv-x="278" d="M90 0v689h98v-689h-98z" />
<glyph unicode="J" horiz-adv-x="278" d="M91 115v574h97v-567q0 -74 -7 -111t-27 -66q-39 -59 -114 -86l-45 53q80 40 92 120q4 27 4 83z" />
<glyph unicode="K" horiz-adv-x="579" d="M90 0v689h98v-689h-98zM433 689h121l-252 -320l261 -369h-125l-246 368z" />
<glyph unicode="L" horiz-adv-x="464" d="M90 0v689h98v-609h262l-16 -80h-344z" />
<glyph unicode="M" horiz-adv-x="810" d="M648 0l-36 469q0 26 -2 55.5t-3 53.5l-13 -48q-5 -22 -14 -52l-137 -478h-83l-126 456q-16 55 -31 123l-44 -579h-94l62 689h135l116 -423q20 -77 25 -113q8 33 12.5 55.5t13.5 52.5l120 428h136l59 -689h-96z" />
<glyph unicode="N" horiz-adv-x="639" d="M468 146q-10 135 -10 205l-2 338h93v-689h-103l-181 366q-67 134 -84 189l-6 -1q8 -94 8 -192l4 -362h-97v689h112l192 -380q55 -110 68 -165z" />
<glyph unicode="O" horiz-adv-x="668" d="M540.5 84q-73.5 -95 -208 -95t-207.5 98.5t-73 263t75 257.5t211 93t206 -102t70 -261t-73.5 -254zM465 553q-39 73 -131.5 73t-133 -66t-40.5 -205.5t40 -216t129.5 -76.5t132 64t42.5 209t-39 218z" />
<glyph unicode="P" horiz-adv-x="552" d="M300 270h-114v-270h-96v689h184q66 0 100 -7t94.5 -44.5t60.5 -148.5q0 -59 -19.5 -100.5t-56 -69.5t-69 -38.5t-84.5 -10.5zM422 478q0 132 -146 132h-90v-262h108q68 0 91 29t30 49.5t7 51.5z" />
<glyph unicode="Q" horiz-adv-x="667" d="M612 341q0 -224 -146 -318q23 -8 50 -25l42 -24q44 -25 85 -25q25 0 43 4l-27 -68q-20 -10 -57 -10t-69.5 17t-66.5 38q-66 43 -138 60q-121 0 -200 93q-78 92 -78 265q0 114 36 196q68 157 242 157q142 0 216 -106q68 -98 68 -254zM420.5 598.5q-35.5 27.5 -86 27.5 t-87 -20t-63.5 -71t-27 -154.5t13.5 -166.5t48 -107t115 -44t113 47t43.5 95.5t11 122.5q0 132 -29 204q-16 39 -51.5 66.5z" />
<glyph unicode="R" horiz-adv-x="579" d="M186 305v-305h-96v689h193q109 0 163 -50q61 -56 61 -140t-49.5 -137.5t-134.5 -53.5q31 -25 48 -47l39 -56q23 -33 31 -46l100 -159h-117q-52 101 -97.5 169t-67.5 92.5t-35 34t-38 9.5zM258 610h-72v-240h67q48 0 74 7t52.5 32.5t26.5 74.5q0 87 -64 113q-33 13 -84 13 z" />
<glyph unicode="S" horiz-adv-x="568" d="M455 568q-88 54 -154.5 54t-100.5 -28t-34 -70t23.5 -65.5t78.5 -39.5l81 -24q75 -22 121.5 -70.5t46.5 -127t-67 -144.5t-191 -66t-224 61l38 74q94 -57 174 -57t120.5 32.5t40.5 87.5q0 84 -114 117l-72 21q-81 23 -122 65t-41 122.5t63 135.5t173.5 55t202.5 -65z" />
<glyph unicode="T" horiz-adv-x="500" d="M295 609v-609h-95v609h-179v80h463l-10 -80h-179z" />
<glyph unicode="U" horiz-adv-x="638" d="M127.5 49.5q-33.5 60.5 -37.5 81.5t-4 77v481h97v-445q0 -106 26 -135q34 -38 110 -38t105.5 38.5t29.5 120.5v459h96v-473q0 -66 -6 -91.5t-33 -58.5q-63 -77 -206.5 -77t-177 60.5z" />
<glyph unicode="V" horiz-adv-x="574" d="M329 -2h-94l-230 691h106l132 -412q13 -36 26 -91l11 -52h6l42 144l135 411h100z" />
<glyph unicode="W" horiz-adv-x="833" d="M649 -2h-118l-76 347q-25 115 -35 198l-6 1q-11 -81 -35 -195l-74 -351h-119l-163 691h104l76 -355q14 -65 22 -120l15 -98h6q15 100 38 209l80 364h111l79 -366q29 -130 36 -203l6 -1q19 123 40 221l73 349h100z" />
<glyph unicode="X" horiz-adv-x="551" d="M425 0l-155 296l-149 -296h-117l208 371l-184 318h117l124 -234l118 234h115l-174 -312l214 -377h-117z" />
<glyph unicode="Y" horiz-adv-x="528" d="M311 0h-100v276l-218 413h118l114 -235q19 -39 38 -89l40 88l116 236h112l-220 -415v-274z" />
<glyph unicode="Z" horiz-adv-x="503" d="M34 0v74l278 467q8 14 24 37l25 34q-30 -3 -79 -3h-236l23 80h396v-77l-275 -467q-13 -23 -22 -35l-21 -31l69 1h253l-24 -80h-411z" />
<glyph unicode="[" horiz-adv-x="265" d="M25 -155v888h175v-65h-92v-759h92v-64h-175z" />
<glyph unicode="\" horiz-adv-x="382" d="M301 -46l-298 774l76 27l298 -774z" />
<glyph unicode="]" horiz-adv-x="268" d="M63 -155v64h92v759h-92v65h175v-888h-175z" />
<glyph unicode="^" horiz-adv-x="656" d="M484 300l-157 320l-156 -320h-91l203 408h88l203 -408h-90z" />
<glyph unicode="_" horiz-adv-x="500" d="M0 -125v50h500v-50h-500z" />
<glyph unicode="`" horiz-adv-x="333" d="M254 563l-217 102l44 85l201 -133z" />
<glyph unicode="a" horiz-adv-x="505" d="M349 51q-54 -66 -136 -66t-125 38t-43 116.5t66.5 124.5t188.5 46l35 -1v33q0 52 -14 75.5t-57 23.5q-85 0 -161 -57l-42 66q52 30 99.5 48t110.5 18q116 0 133.5 -48.5t19.5 -65t2 -45.5t-2 -91l-2 -104q0 -48 4 -74t37 -47l-47 -62q-49 19 -67 72zM146 139 q0 -87 79 -87q67 0 105 66l3 128l-30 2q-100 0 -122.5 -26.5t-28.5 -42t-6 -40.5z" />
<glyph unicode="b" horiz-adv-x="546" d="M174 458q56 56 138 56t134 -68t52 -187q0 -158 -90 -231q-47 -38 -117.5 -38t-119.5 66q-7 -39 -15 -56h-87q13 35 13 117v479q0 74 -16 120l98 20q10 -53 10 -108v-116q0 -42 -3 -52zM174 122q46 -53 108 -53q58 0 84 46q28 48 28 122t-4 97.5t-17 47.5q-28 52 -89 52 q-42 0 -66.5 -17.5t-29.5 -22.5l-14 -18v-254z" />
<glyph unicode="c" horiz-adv-x="440" d="M410 55q-67 -65 -164.5 -65t-148 71.5t-50.5 168t22 149t70.5 96t124 43.5t133.5 -53l-48 -63q-44 39 -97 39q-103 0 -103 -207q0 -101 34 -137.5t85 -36.5t97 52z" />
<glyph unicode="d" horiz-adv-x="547" d="M120 461.5q75 48.5 138 48.5t112 -58l-2 88v195l92 -15v-552q0 -129 14 -168h-88q-5 13 -9 47q-52 -55 -138.5 -55t-140 67.5t-53.5 186.5q0 167 75 215.5zM367 389q-39 47 -101 47t-84 -37.5t-28 -70t-6 -92t8.5 -89t32 -54t72.5 -24.5q73 0 106 58v262z" />
<glyph unicode="e" horiz-adv-x="508" d="M148 231v-12q0 -66 29.5 -112.5t102.5 -46.5t127 48l35 -55q-73 -64 -175 -64t-162 71t-60 194t59.5 193t147 70t130.5 -44t57 -91.5t14 -134.5v-16h-305zM254 447q-52 0 -78.5 -39t-26.5 -109h208q0 106 -62 139q-18 9 -41 9z" />
<glyph unicode="f" horiz-adv-x="298" d="M88 501q-2 20 -2 66v14q0 85 61 129q29 20 74 20q78 0 121 -27l-31 -60q-38 19 -65 19q-67 0 -67 -80v-81h133l-24 -65h-108v-436h-93v436h-48v65h49z" />
<glyph unicode="g" horiz-adv-x="527" d="M370.5 492q17.5 -4 44.5 -4t70 29l47 -57q-38 -30 -83 -30q-13 0 -43 8q36 -46 36 -100t-44.5 -100.5t-135.5 -46.5q-28 -9 -53.5 -24.5t-25.5 -30.5q0 -25 36 -25h77q92 0 136.5 -37.5t44.5 -108.5t-58 -112.5t-157.5 -41.5t-157.5 35t-58 97q0 24 9 51l90 5 q-9 -16 -9 -38q0 -80 122 -80t122 86q0 76 -138 76q-52 0 -116 7q-48 6 -48 65q0 39 30 56.5t68 31.5q-118 35 -118 144q0 76 53 122t139 46q42 0 72.5 -9.5t48 -13.5zM248.5 443q-91.5 0 -91.5 -94.5t91.5 -94.5t91.5 94.5t-91.5 94.5z" />
<glyph unicode="h" horiz-adv-x="544" d="M79 609q0 57 -11 105l93 19q11 -47 11 -116v-112l-3 -67q29 26 67 50.5t89 24.5t86 -20.5t43 -46.5q13 -38 13 -89v-357h-90v344q0 51 -17 70t-55 19q-70 0 -133 -73v-360h-93v609z" />
<glyph unicode="i" horiz-adv-x="255" d="M173.5 608.5q-19.5 -19.5 -47 -19.5t-46 19.5t-18.5 46.5t19 47t46 20t46.5 -19.5t19.5 -47t-19.5 -47zM79 0v498l95 15v-513h-95z" />
<glyph unicode="j" horiz-adv-x="257" d="M173 615q-19 -20 -46.5 -20t-46.5 19t-19 46.5t19 47.5t46 20t46.5 -19.5t19.5 -46.5t-19 -47zM81 12v481l95 20v-502q0 -48 -7 -83t-27 -60q-40 -51 -91 -74l-41 56l32 24q39 36 39 138z" />
<glyph unicode="k" horiz-adv-x="500" d="M161 734q12 -60 12 -110v-624h-92v598q0 67 -13 114zM389 0l-206 285l165 217h112l-179 -213l223 -289h-115z" />
<glyph unicode="l" horiz-adv-x="263" d="M164 733q9 -31 9 -143v-451q0 -42 2 -54q5 -28 33 -28q6 0 9 1l16 -57q-26 -11 -67 -11t-60 27t-23 44.5t-4 53.5v454q0 89 -11 144z" />
<glyph unicode="m" horiz-adv-x="788" d="M165 444q68 71 146 71t114 -79q75 79 143 79q138 0 138 -141v-374h-91v359q0 42 -14 59.5t-46 17.5t-56.5 -16t-60.5 -52v-368h-90v357q0 42 -13.5 59.5t-48.5 17.5q-54 0 -115 -58v-376h-91v368q0 56 -3 75t-15 50l86 21q17 -29 17 -70z" />
<glyph unicode="n" horiz-adv-x="533" d="M81 373q0 69 -19 119l87 24q17 -34 17 -77l32 27q57 47 126 47q40 0 72 -19q58 -34 58 -115v-379h-91v338q0 35 -3 50q-10 47 -64 47q-27 0 -62.5 -18.5t-61.5 -45.5v-371h-91v373z" />
<glyph unicode="o" horiz-adv-x="535" d="M421 56q-59 -70 -159.5 -70t-158.5 71t-58 193t58 193.5t160.5 71.5t159.5 -75.5t57 -194.5t-59 -189zM264 57q113 0 113 185q0 111 -29.5 156.5t-88 45.5t-85.5 -44t-27 -147.5t28.5 -149.5t88.5 -46z" />
<glyph unicode="p" horiz-adv-x="545" d="M81 378q0 68 -11 123l89 15q6 -21 6 -72q58 70 140.5 70t136 -66t53.5 -188t-51 -196t-145 -74q-72 0 -130 52q2 -24 2 -56v-176l-90 -21v589zM171 119q51 -55 107 -55q118 0 118 184q0 96 -23.5 142t-85.5 46t-116 -62v-255z" />
<glyph unicode="q" horiz-adv-x="546" d="M381 449q0 34 9 56h83q-12 -45 -12 -140v-552l-88 -22v184l1 78q-57 -61 -134.5 -61t-135 64t-57.5 189.5t51.5 199t140.5 73.5t142 -69zM176.5 112.5q30.5 -43.5 93.5 -43.5t102 67v242q-18 27 -49 44t-62 17q-115 0 -115 -180q0 -103 30.5 -146.5z" />
<glyph unicode="r" horiz-adv-x="339" d="M151 516q17 -36 17 -77v-9q60 87 136 87q18 0 31 -5l-32 -92q-15 5 -26 5q-42 0 -73 -30t-31 -72v-323h-92v368q0 76 -19 125z" />
<glyph unicode="s" horiz-adv-x="458" d="M359 416q-72 36 -117.5 36t-69 -20.5t-23.5 -51.5t15.5 -46.5t55.5 -24.5l65 -15q66 -15 98 -52t32 -88q0 -75 -54.5 -121.5t-147 -46.5t-182.5 53l33 66q87 -50 161 -50q41 0 67 22t26 59q0 63 -84 79l-61 12q-122 23 -122 139q0 69 50.5 112.5t130.5 43.5q88 0 158 -41 z" />
<glyph unicode="t" horiz-adv-x="325" d="M184 651q-9 -90 -9 -150h122l-25 -65h-99v-302q0 -48 13.5 -64.5t44.5 -16.5t54 10l11 -56q-42 -21 -95.5 -21t-77.5 22t-32 39t-8 66v323h-60v65h60q0 86 6 128z" />
<glyph unicode="u" horiz-adv-x="543" d="M222 -17q-48 0 -83.5 20t-49.5 51t-14 88v356l91 18v-349q0 -66 23.5 -88t57 -22t66 22.5t48.5 56.5v360l91 18v-377q0 -78 31 -104l-63 -50q-35 27 -47 72q-59 -72 -151 -72z" />
<glyph unicode="v" horiz-adv-x="456" d="M266 -4h-86l-179 503l95 15l99 -303q17 -52 30 -108q15 61 32 110l95 288h97z" />
<glyph unicode="w" horiz-adv-x="701" d="M497 108h4l23 119l62 274h96l-140 -505h-89l-104 391l-105 -391h-88l-137 501l93 15l64 -281l26 -123l10 52q6 27 16 62l76 279h95l70 -271l17 -73q11 -45 11 -49z" />
<glyph unicode="x" horiz-adv-x="461" d="M349 0l-121 203q-90 -154 -122 -203h-114l186 276l-148 218l104 13l97 -168q62 120 86 162h107l-146 -225l186 -276h-115z" />
<glyph unicode="y" horiz-adv-x="475" d="M289 -16q-20 -59 -39 -96q-45 -82 -139 -101l-29 60q51 13 75 42.5t32 49.5t21 63l-36 -5q-16 72 -48 167l-111 329l93 21l96 -315q16 -56 29 -118h6q14 60 34 124l89 296h102z" />
<glyph unicode="z" horiz-adv-x="436" d="M29 0v66l263 368h-243v67h343v-69l-251 -366h262l-32 -66h-342z" />
<glyph unicode="{" horiz-adv-x="347" d="M235 -155q-46 0 -78 34t-32 97v175q0 47 -30.5 74t-63.5 27v74q33 0 63.5 27.5t30.5 73.5v177q0 62 32.5 95.5t77.5 33.5h80v-74h-49q-35 0 -46.5 -21t-11.5 -55v-173q0 -58 -28 -85t-62 -33l-1 -7q34 -3 62.5 -29t28.5 -88v-172q0 -35 11.5 -56.5t46.5 -21.5h49v-73h-80 z" />
<glyph unicode="|" horiz-adv-x="222" d="M70 -17v774h81v-774h-81z" />
<glyph unicode="}" horiz-adv-x="348" d="M226 151v-176q0 -61 -32.5 -95.5t-78.5 -34.5h-79v73h48q35 0 47 21.5t12 56.5v171q0 62 28.5 88.5t62.5 29.5v7q-35 6 -63 32.5t-28 85.5v173q0 34 -12 55t-47 21h-48v74h80q44 0 77 -34t33 -96v-176q0 -47 29.5 -74t64.5 -27v-74q-34 0 -64 -26.5t-30 -74.5z" />
<glyph unicode="~" horiz-adv-x="666" d="M495.5 243q-27.5 -18 -57 -18t-47.5 6.5t-54 22.5l-63 30q-31 13 -54.5 13t-43.5 -13.5t-43 -54.5l-30 66q33 53 60 70.5t55 17.5t50.5 -8t55.5 -23l62 -28q30 -13 52.5 -13t42 13t44.5 56l30 -66q-32 -53 -59.5 -71z" />
<glyph unicode="&#xa1;" horiz-adv-x="268" d="M181.5 587.5q-19.5 -19.5 -47 -19.5t-46 19.5t-18.5 47t18.5 47t46 19.5t47 -19.5t19.5 -47t-19.5 -47zM78 -11l23 495h69l23 -478z" />
<glyph unicode="&#xa2;" horiz-adv-x="446" d="M417 55q-54 -54 -122 -63v-87h-62v87q-92 9 -126 58q-61 87 -61 181.5t23 147.5t55 81q53 46 108 54v83h63v-83q46 0 108 -51l-47 -61q-24 26 -61 36v-376q50 13 76 49zM162 360q-17 -36 -17 -115q0 -156 88 -183v377q-43 -18 -71 -79z" />
<glyph unicode="&#xa3;" d="M388 632q-126 0 -126 -160v-72h159v-74h-159v-241h248v-85h-453v85h103v241h-96v74h96v81q0 113 60 176t163 63q107 0 174 -61l-67 -72q-48 45 -102 45z" />
<glyph unicode="&#xa4;" horiz-adv-x="447" d="M342 391q37 -37 37 -113.5t-33 -118.5l44 -69l-78 -49l-38 66q-32 -8 -55 -8t-56 9l-40 -67l-75 49l43 68q-34 42 -34 113.5t37 117.5l-45 66l80 48l39 -66q21 6 51 6t52 -8l36 68l76 -48zM218 386q-43 0 -63.5 -24.5t-20.5 -86t18.5 -91t61.5 -29.5q88 0 88 115.5 t-84 115.5z" />
<glyph unicode="&#xa5;" horiz-adv-x="553" d="M513 386v-69h-171l-23 -42v-55h194v-68h-194v-152h-100v152h-185v68h185v57l-22 40h-163v69h129l-162 304h118l114 -235q19 -39 38 -89l40 88l116 236h112l-162 -304h136z" />
<glyph unicode="&#xa7;" horiz-adv-x="571" d="M497 283q0 -85 -89 -132q67 -48 67 -128t-65 -124.5t-144 -44.5q-160 0 -214 121l90 43q24 -80 122 -80q42 0 72 20t30 58t-26 56.5t-69 38t-78 38t-61.5 35.5t-45 48t-18.5 76q0 86 100 139q-76 45 -76 120t58.5 117.5t129.5 42.5q150 0 198 -95l-88 -49 q-12 29 -40 44.5t-64 15.5t-63 -19.5t-27 -63t50 -66.5l100 -47q73 -35 112 -69.5t39 -94.5zM180.5 369.5q-18.5 -17.5 -18.5 -50t22 -52t62 -38.5l96 -46q25 12 41.5 34t16.5 51q0 51 -89 94l-80 39q-32 -14 -50.5 -31.5z" />
<glyph unicode="&#xa8;" horiz-adv-x="500" d="M393 583q-17 -19 -41.5 -19t-41.5 18t-17 44.5t17 44.5t41.5 18t41.5 -18t17 -43.5t-17 -44.5zM184.5 582.5q-17.5 -18.5 -42 -18.5t-41 18.5t-16.5 44.5t17 44t41 18t41.5 -18.5t17.5 -44t-17.5 -44z" />
<glyph unicode="&#xa9;" horiz-adv-x="793" d="M656.5 91.5q-108.5 -108.5 -261 -108.5t-260 107.5t-107.5 263.5t107.5 264.5t260 108.5t261 -107.5t108.5 -263.5t-108.5 -264.5zM396 666q-124 0 -210 -90t-86 -220.5t86 -221.5t210 -91t210.5 90.5t86.5 221t-86.5 221t-210.5 90.5zM514 178q-49 -37 -122.5 -37 t-121.5 59t-48 141.5t38.5 156t141.5 73.5q65 0 103 -33l-31 -45q-33 23 -79.5 23t-71.5 -44.5t-25 -99t4 -77t22 -61.5t83 -39q41 0 74 27z" />
<glyph unicode="&#xaa;" horiz-adv-x="395" d="M54 719q80 49 157.5 49t95 -32.5t20 -49t2.5 -50.5l-3 -137q0 -32 3 -51.5t27 -34.5l-35 -47q-37 15 -50 56q-15 -17 -39 -34.5t-62.5 -17.5t-60 8t-37.5 23q-30 30 -30 87t48.5 90.5t140.5 33.5h28v25q0 22 -2 34.5t-13.5 26t-42.5 13.5t-64 -14t-52 -29zM34 237v57h325 v-57h-325zM116 486q0 -66 60 -66q50 0 80 50l1 96l-22 3q-71 0 -103 -29q-16 -16 -16 -54z" />
<glyph unicode="&#xab;" horiz-adv-x="510" d="M408 23l-146 221l146 222l62 -43l-115 -179l115 -179zM201 23l-146 221l146 222l62 -43l-115 -179l115 -179z" />
<glyph unicode="&#xac;" horiz-adv-x="584" d="M390 72v140h-318v81h409v-221h-91z" />
<glyph unicode="&#xad;" horiz-adv-x="312" d="M55 225v91h203v-91h-203z" />
<glyph unicode="&#xae;" horiz-adv-x="793" d="M656.5 91.5q-108.5 -108.5 -261 -108.5t-260 107.5t-107.5 263.5t107.5 264.5t260 108.5t261 -107.5t108.5 -263.5t-108.5 -264.5zM396 666q-124 0 -210 -90t-86 -220.5t86 -221.5t210 -91t210.5 90.5t86.5 221t-86.5 221t-210.5 90.5zM345 328v-180h-68v416h127 q66 0 100.5 -33.5t34.5 -84t-28.5 -83t-74.5 -32.5q13 -7 30 -31l34 -52l61 -100h-82l-36 65q-50 88 -81 111q-6 4 -17 4zM345 508v-132h36q50 0 68 17.5t18 50.5q0 64 -84 64h-38z" />
<glyph unicode="&#xaf;" horiz-adv-x="225" d="M-141 60v63h281v-63h-281z" />
<glyph unicode="&#xb0;" horiz-adv-x="391" d="M314.5 402.5q-44.5 -45.5 -121 -45.5t-119.5 45t-43 123.5t44 124.5t120.5 46t120 -45.5t43.5 -124t-44.5 -124zM194 639q-86 0 -86 -108q0 -64 21 -90.5t67 -26.5q86 0 86 107q0 64 -21.5 91t-66.5 27z" />
<glyph unicode="&#xb1;" horiz-adv-x="455" d="M271 286v-142h-91v142h-150v86h150v136h91v-136h150v-86h-150zM32 31v86h387v-86h-387z" />
<glyph unicode="&#xb2;" horiz-adv-x="537" d="M70 0v81l130 95q81 60 115.5 97t34.5 85q0 83 -101 83q-48 0 -84.5 -20.5t-64.5 -42.5l-45 51q106 93 220 93q81 0 131.5 -40.5t50.5 -113t-55.5 -125.5t-105.5 -88l-117 -82l103 3h196l-19 -76h-389z" />
<glyph unicode="&#xb3;" horiz-adv-x="528" d="M445 354q0 -110 -121 -150q62 -16 100 -58t38 -104t-48 -116q-97 -109 -293 -109h-18q-18 0 -42 4l-20 62q20 -4 65.5 -4t101.5 12.5t102 57.5t46 110q0 37 -19 64t-45 36q-42 14 -118 14l-23 -1v71l24 -1h43q17 0 44.5 3.5t54 27.5t26.5 68.5t-29.5 72t-75.5 27.5 t-77.5 -12.5t-81.5 -42.5l-44 52q43 35 100.5 57.5t112.5 22.5q87 0 142 -46t55 -118z" />
<glyph unicode="&#xb4;" horiz-adv-x="338" d="M75 563l-29 54l201 133l45 -85z" />
<glyph unicode="&#xb5;" horiz-adv-x="536" d="M455 147q0 -84 31 -112l-62 -49q-35 27 -47 72q-59 -72 -151 -72q-33 0 -58 23l2 -41l5 -157l-97 -22v709l92 19v-348q0 -41 4.5 -57.5t23.5 -34t53 -17.5t66 22t48 57v357l90 18v-367z" />
<glyph unicode="&#xb6;" horiz-adv-x="604" d="M482 -125v772h-121v-772h-72v454q-94 0 -152.5 51.5t-58.5 139.5t60 138.5t166 50.5h249v-834h-71z" />
<glyph unicode="&#xb8;" horiz-adv-x="429" d="M249 -39q68 -9 68 -74q0 -34 -26.5 -59.5t-72.5 -25.5q-34 0 -79 24l22 48q32 -15 51 -15t29.5 8.5t10.5 21.5q0 30 -37 30l-31 -3l1 21l19 75l58 -7z" />
<glyph unicode="&#xb9;" horiz-adv-x="411" d="M94 0v74h98v332q-58 -38 -132 -66l-22 48l177 125h67v-439h88v-74h-276z" />
<glyph unicode="&#xba;" horiz-adv-x="429" d="M49 237v57h325v-57h-325zM329 422q-44 -52 -118.5 -52t-118 52.5t-43.5 143.5t43 144t120 53t119 -55.5t42 -144.5t-44 -141zM212 430q80 0 80 130q0 79 -21 111t-62.5 32t-60 -30.5t-18.5 -104.5t19.5 -106t62.5 -32z" />
<glyph unicode="&#xbb;" horiz-adv-x="510" d="M323 23l-62 42l116 179l-116 179l62 43l146 -222zM116 23l-62 42l117 179l-117 179l62 43l146 -222z" />
<glyph unicode="&#xbf;" horiz-adv-x="435" d="M223 560q-29 0 -49 20t-20 49.5t20 50.5t49 21t49.5 -20.5t20.5 -50t-20.5 -50t-49.5 -20.5zM273 464q8 -29 8 -67.5t-19.5 -75.5t-52 -62.5t-55.5 -47t-23 -59.5t25.5 -60.5t59.5 -22.5q77 0 129 45l40 -61q-31 -27 -80 -45.5t-112.5 -18.5t-108.5 41t-45 106.5 t29.5 100t63.5 58.5q66 48 66 119q0 24 -4 50h79z" />
<glyph unicode="&#xc0;" d="M460 0l-61 195h-239l-60 -195h-100l226 690h120l222 -690h-108zM285 594h-6q-12 -45 -48 -166.5t-47 -152.5h194q-6 15 -45.5 148.5t-47.5 170.5zM344 723l-217 102l44 85l201 -133z" />
<glyph unicode="&#xc1;" d="M460 0l-61 195h-239l-60 -195h-100l226 690h120l222 -690h-108zM285 594h-6q-12 -45 -48 -166.5t-47 -152.5h194q-6 15 -45.5 148.5t-47.5 170.5zM229 723l-29 54l201 133l45 -85z" />
<glyph unicode="&#xc2;" d="M460 0l-61 195h-239l-60 -195h-100l226 690h120l222 -690h-108zM285 594h-6q-12 -45 -48 -166.5t-47 -152.5h194q-6 15 -45.5 148.5t-47.5 170.5zM422 718l-138 86l-134 -86l-32 51l169 138l171 -138z" />
<glyph unicode="&#xc3;" d="M460 0l-61 195h-239l-60 -195h-100l226 690h120l222 -690h-108zM285 594h-6q-12 -45 -48 -166.5t-47 -152.5h194q-6 15 -45.5 148.5t-47.5 170.5zM452 813q-50 -66 -112 -66q-34 0 -73 21t-61.5 21t-35.5 -8.5t-31 -29.5l-31 52q26 34 51.5 49.5t61 15.5t70.5 -20.5 t59.5 -20.5t38 8.5t32.5 29.5z" />
<glyph unicode="&#xc4;" d="M460 0l-61 195h-239l-60 -195h-100l226 690h120l222 -690h-108zM285 594h-6q-12 -45 -48 -166.5t-47 -152.5h194q-6 15 -45.5 148.5t-47.5 170.5zM432 743q-17 -19 -41.5 -19t-41.5 18t-17 44.5t17 44.5t41.5 18t41.5 -18t17 -43.5t-17 -44.5zM223.5 742.5 q-17.5 -18.5 -42 -18.5t-41 18.5t-16.5 44.5t17 44t41 18t41.5 -18.5t17.5 -44t-17.5 -44z" />
<glyph unicode="&#xc5;" d="M460 0l-61 195h-239l-60 -195h-100l226 690h120l222 -690h-108zM285 594h-6q-12 -45 -48 -166.5t-47 -152.5h194q-6 15 -45.5 148.5t-47.5 170.5zM283 714q-42 0 -71 31t-29 75t30 75t71.5 31t71.5 -31t30 -74.5t-30.5 -75t-72.5 -31.5zM327 865q-17 18 -42 18t-43 -18 t-18 -44.5t17.5 -45t42.5 -18.5t42.5 18.5t17.5 45t-17 44.5z" />
<glyph unicode="&#xc6;" horiz-adv-x="901" d="M464 0v196h-226l-116 -196h-106l417 686h406l-13 -79h-265v-208h222v-81h-221v-235h287v-83h-385zM460 581l-177 -306h181l-1 193l3 111z" />
<glyph unicode="&#xc7;" horiz-adv-x="549" d="M318 -42q69 -10 69 -73q0 -32 -26.5 -57.5t-58.5 -25.5q-49 0 -94 24l22 47q32 -15 51 -15q41 0 41 29t-37 29q-13 0 -25 -4l-8 12l19 73q-43 10 -78 32.5t-90.5 87t-55.5 202.5t41.5 218.5t107 122t155 41.5t158.5 -53l-47 -63q-56 40 -113.5 40t-94 -22.5t-58.5 -60.5 q-42 -70 -42 -188t24 -173.5t69 -84t106 -28.5t122 43l47 -63q-81 -58 -193 -58z" />
<glyph unicode="&#xc8;" horiz-adv-x="516" d="M90 0v689h375l-13 -79h-265v-210h222v-81h-221v-236h288v-83h-386zM366 723l-217 102l44 85l201 -133z" />
<glyph unicode="&#xc9;" horiz-adv-x="516" d="M90 0v689h375l-13 -79h-265v-210h222v-81h-221v-236h288v-83h-386zM202 723l-29 54l201 133l45 -85z" />
<glyph unicode="&#xca;" horiz-adv-x="516" d="M90 0v689h375l-13 -79h-265v-210h222v-81h-221v-236h288v-83h-386zM420 718l-138 86l-134 -86l-32 51l169 138l171 -138z" />
<glyph unicode="&#xcb;" horiz-adv-x="516" d="M90 0v689h375l-13 -79h-265v-210h222v-81h-221v-236h288v-83h-386zM432 743q-17 -19 -41.5 -19t-41.5 18t-17 44.5t17 44.5t41.5 18t41.5 -18t17 -43.5t-17 -44.5zM223.5 742.5q-17.5 -18.5 -42 -18.5t-41 18.5t-16.5 44.5t17 44t41 18t41.5 -18.5t17.5 -44t-17.5 -44z " />
<glyph unicode="&#xcc;" horiz-adv-x="278" d="M90 0v689h98v-689h-98zM197 727l-217 102l44 85l201 -133z" />
<glyph unicode="&#xcd;" horiz-adv-x="278" d="M90 0v689h98v-689h-98zM87 727l-29 54l201 133l45 -85z" />
<glyph unicode="&#xce;" horiz-adv-x="278" d="M90 0v689h98v-689h-98zM276 722l-138 86l-134 -86l-32 51l169 138l171 -138z" />
<glyph unicode="&#xcf;" horiz-adv-x="278" d="M90 0v689h98v-689h-98zM288 745q-17 -19 -41.5 -19t-41.5 18t-17 44.5t17 44.5t41.5 18t41.5 -18t17 -43.5t-17 -44.5zM79.5 744.5q-17.5 -18.5 -42 -18.5t-41 18.5t-16.5 44.5t17 44t41 18t41.5 -18.5t17.5 -44t-17.5 -44z" />
<glyph unicode="&#xd1;" horiz-adv-x="630" d="M468 146q-10 135 -10 205l-2 338h93v-689h-103l-181 366q-67 134 -84 189l-6 -1q8 -94 8 -192l4 -362h-97v689h112l192 -380q55 -110 68 -165zM492 813q-50 -66 -112 -66q-34 0 -73 21t-61.5 21t-35.5 -8.5t-31 -29.5l-31 52q26 34 51.5 49.5t61 15.5t70.5 -20.5 t59.5 -20.5t38 8.5t32.5 29.5z" />
<glyph unicode="&#xd2;" horiz-adv-x="668" d="M540.5 84q-73.5 -95 -208 -95t-207.5 98.5t-73 263t75 257.5t211 93t206 -102t70 -261t-73.5 -254zM465 553q-39 73 -131.5 73t-133 -66t-40.5 -205.5t40 -216t129.5 -76.5t132 64t42.5 209t-39 218zM418 723l-217 102l44 85l201 -133z" />
<glyph unicode="&#xd3;" horiz-adv-x="668" d="M540.5 84q-73.5 -95 -208 -95t-207.5 98.5t-73 263t75 257.5t211 93t206 -102t70 -261t-73.5 -254zM465 553q-39 73 -131.5 73t-133 -66t-40.5 -205.5t40 -216t129.5 -76.5t132 64t42.5 209t-39 218zM251 727l-29 54l201 133l45 -85z" />
<glyph unicode="&#xd4;" horiz-adv-x="668" d="M540.5 84q-73.5 -95 -208 -95t-207.5 98.5t-73 263t75 257.5t211 93t206 -102t70 -261t-73.5 -254zM465 553q-39 73 -131.5 73t-133 -66t-40.5 -205.5t40 -216t129.5 -76.5t132 64t42.5 209t-39 218zM472 718l-138 86l-134 -86l-32 51l169 138l171 -138z" />
<glyph unicode="&#xd5;" horiz-adv-x="668" d="M540.5 84q-73.5 -95 -208 -95t-207.5 98.5t-73 263t75 257.5t211 93t206 -102t70 -261t-73.5 -254zM465 553q-39 73 -131.5 73t-133 -66t-40.5 -205.5t40 -216t129.5 -76.5t132 64t42.5 209t-39 218zM519 813q-50 -66 -112 -66q-34 0 -73 21t-61.5 21t-35.5 -8.5 t-31 -29.5l-31 52q26 34 51.5 49.5t61 15.5t70.5 -20.5t59.5 -20.5t38 8.5t32.5 29.5z" />
<glyph unicode="&#xd6;" horiz-adv-x="661" d="M540.5 84q-73.5 -95 -208 -95t-207.5 98.5t-73 263t75 257.5t211 93t206 -102t70 -261t-73.5 -254zM465 553q-39 73 -131.5 73t-133 -66t-40.5 -205.5t40 -216t129.5 -76.5t132 64t42.5 209t-39 218zM482 743q-17 -19 -41.5 -19t-41.5 18t-17 44.5t17 44.5t41.5 18 t41.5 -18t17 -43.5t-17 -44.5zM273.5 742.5q-17.5 -18.5 -42 -18.5t-41 18.5t-16.5 44.5t17 44t41 18t41.5 -18.5t17.5 -44t-17.5 -44z" />
<glyph unicode="&#xd8;" horiz-adv-x="667" d="M190 663q63 37 145.5 37t150.5 -43l61 105l55 -32l-69 -116q42 -57 62 -115.5t20 -161.5q0 -201 -119 -296q-67 -54 -157 -54t-155 44l-67 -115l-54 32l75 125q-85 103 -85 273q0 114 37 197t100 120zM441 583q-46 42 -99.5 42t-91 -20t-63.5 -71.5t-26 -172t28 -202.5z M227 100q47 -40 118.5 -40t105 48t44 95.5t10.5 145t-26 173.5z" />
<glyph unicode="&#xd9;" horiz-adv-x="638" d="M127.5 49.5q-33.5 60.5 -37.5 81.5t-4 77v481h97v-445q0 -106 26 -135q34 -38 110 -38t105.5 38.5t29.5 120.5v459h96v-473q0 -66 -6 -91.5t-33 -58.5q-63 -77 -206.5 -77t-177 60.5zM387 723l-217 102l44 85l201 -133z" />
<glyph unicode="&#xda;" horiz-adv-x="638" d="M127.5 49.5q-33.5 60.5 -37.5 81.5t-4 77v481h97v-445q0 -106 26 -135q34 -38 110 -38t105.5 38.5t29.5 120.5v459h96v-473q0 -66 -6 -91.5t-33 -58.5q-63 -77 -206.5 -77t-177 60.5zM233 723l-29 54l201 133l45 -85z" />
<glyph unicode="&#xdb;" horiz-adv-x="638" d="M127.5 49.5q-33.5 60.5 -37.5 81.5t-4 77v481h97v-445q0 -106 26 -135q34 -38 110 -38t105.5 38.5t29.5 120.5v459h96v-473q0 -66 -6 -91.5t-33 -58.5q-63 -77 -206.5 -77t-177 60.5zM448 718l-138 86l-134 -86l-32 51l169 138l171 -138z" />
<glyph unicode="&#xdc;" horiz-adv-x="638" d="M127.5 49.5q-33.5 60.5 -37.5 81.5t-4 77v481h97v-445q0 -106 26 -135q34 -38 110 -38t105.5 38.5t29.5 120.5v459h96v-473q0 -66 -6 -91.5t-33 -58.5q-63 -77 -206.5 -77t-177 60.5zM459 743q-17 -19 -41.5 -19t-41.5 18t-17 44.5t17 44.5t41.5 18t41.5 -18t17 -43.5 t-17 -44.5zM250.5 742.5q-17.5 -18.5 -42 -18.5t-41 18.5t-16.5 44.5t17 44t41 18t41.5 -18.5t17.5 -44t-17.5 -44z" />
<glyph unicode="&#xdd;" horiz-adv-x="528" d="M262 761l-29 54l201 133l45 -85zM311 0h-100v276l-218 413h118l114 -235q19 -39 38 -89l40 88l116 236h112l-220 -415v-274z" />
<glyph unicode="&#xdf;" horiz-adv-x="584" d="M78 1q13 50 13 119l-2 313h-77v68h76v22q0 57 13 88t53.5 67t125 36t137.5 -43t53 -104t-27 -86t-43 -35t-35 -16q-35 -12 -35 -27.5t36 -34.5l84 -43q79 -45 79 -144q0 -100 -82 -158q-48 -34 -110.5 -34t-93.5 14l24 62q30 -10 50 -10q50 0 81 33t31 77t-14.5 69 t-32.5 38.5t-56.5 34t-57.5 40.5t-19 45.5t13.5 43.5t47.5 35.5t46.5 36t12.5 57t-27.5 59.5t-74.5 21q-87 0 -87 -138v-24l3 -382q0 -51 -14 -100h-91z" />
<glyph unicode="&#xe0;" horiz-adv-x="505" d="M349 51q-54 -66 -136 -66t-125 38t-43 116.5t66.5 124.5t188.5 46l35 -1v33q0 52 -14 75.5t-57 23.5q-85 0 -161 -57l-42 66q52 30 99.5 48t110.5 18q116 0 133.5 -48.5t19.5 -65t2 -45.5t-2 -91l-2 -104q0 -48 4 -74t37 -47l-47 -62q-49 19 -67 72zM146 139 q0 -87 79 -87q67 0 105 66l3 128l-30 2q-100 0 -122.5 -26.5t-28.5 -42t-6 -40.5zM330 563l-217 102l44 85l201 -133z" />
<glyph unicode="&#xe1;" horiz-adv-x="505" d="M349 51q-54 -66 -136 -66t-125 38t-43 116.5t66.5 124.5t188.5 46l35 -1v33q0 52 -14 75.5t-57 23.5q-85 0 -161 -57l-42 66q52 30 99.5 48t110.5 18q116 0 133.5 -48.5t19.5 -65t2 -45.5t-2 -91l-2 -104q0 -48 4 -74t37 -47l-47 -62q-49 19 -67 72zM146 139 q0 -87 79 -87q67 0 105 66l3 128l-30 2q-100 0 -122.5 -26.5t-28.5 -42t-6 -40.5zM177 563l-29 54l201 133l45 -85z" />
<glyph unicode="&#xe2;" horiz-adv-x="505" d="M349 51q-54 -66 -136 -66t-125 38t-43 116.5t66.5 124.5t188.5 46l35 -1v33q0 52 -14 75.5t-57 23.5q-85 0 -161 -57l-42 66q52 30 99.5 48t110.5 18q116 0 133.5 -48.5t19.5 -65t2 -45.5t-2 -91l-2 -104q0 -48 4 -74t37 -47l-47 -62q-49 19 -67 72zM146 139 q0 -87 79 -87q67 0 105 66l3 128l-30 2q-100 0 -122.5 -26.5t-28.5 -42t-6 -40.5zM379 558l-138 86l-134 -86l-32 51l169 138l171 -138z" />
<glyph unicode="&#xe3;" horiz-adv-x="505" d="M349 51q-54 -66 -136 -66t-125 38t-43 116.5t66.5 124.5t188.5 46l35 -1v33q0 52 -14 75.5t-57 23.5q-85 0 -161 -57l-42 66q52 30 99.5 48t110.5 18q116 0 133.5 -48.5t19.5 -65t2 -45.5t-2 -91l-2 -104q0 -48 4 -74t37 -47l-47 -62q-49 19 -67 72zM146 139 q0 -87 79 -87q67 0 105 66l3 128l-30 2q-100 0 -122.5 -26.5t-28.5 -42t-6 -40.5zM415 653q-50 -66 -112 -66q-34 0 -73 21t-61.5 21t-35.5 -8.5t-31 -29.5l-31 52q26 34 51.5 49.5t61 15.5t70.5 -20.5t59.5 -20.5t38 8.5t32.5 29.5z" />
<glyph unicode="&#xe4;" horiz-adv-x="505" d="M393 583q-17 -19 -41.5 -19t-41.5 18t-17 44.5t17 44.5t41.5 18t41.5 -18t17 -43.5t-17 -44.5zM184.5 582.5q-17.5 -18.5 -42 -18.5t-41 18.5t-16.5 44.5t17 44t41 18t41.5 -18.5t17.5 -44t-17.5 -44zM349 51q-54 -66 -136 -66t-125 38t-43 116.5t66.5 124.5t188.5 46 l35 -1v33q0 52 -14 75.5t-57 23.5q-85 0 -161 -57l-42 66q52 30 99.5 48t110.5 18q116 0 133.5 -48.5t19.5 -65t2 -45.5t-2 -91l-2 -104q0 -48 4 -74t37 -47l-47 -62q-49 19 -67 72zM146 139q0 -87 79 -87q67 0 105 66l3 128l-30 2q-100 0 -122.5 -26.5t-28.5 -42t-6 -40.5z " />
<glyph unicode="&#xe5;" horiz-adv-x="505" d="M349 51q-54 -66 -136 -66t-125 38t-43 116.5t66.5 124.5t188.5 46l35 -1v33q0 52 -14 75.5t-57 23.5q-85 0 -161 -57l-42 66q52 30 99.5 48t110.5 18q116 0 133.5 -48.5t19.5 -65t2 -45.5t-2 -91l-2 -104q0 -48 4 -74t37 -47l-47 -62q-49 19 -67 72zM146 139 q0 -87 79 -87q67 0 105 66l3 128l-30 2q-100 0 -122.5 -26.5t-28.5 -42t-6 -40.5zM252 554q-42 0 -71 31t-29 75t30 75t71.5 31t71.5 -31t30 -74.5t-30.5 -75t-72.5 -31.5zM296 705q-17 18 -42 18t-43 -18t-18 -44.5t17.5 -45t42.5 -18.5t42.5 18.5t17.5 45t-17 44.5z" />
<glyph unicode="&#xe6;" horiz-adv-x="774" d="M390 457q60 60 136 60q83 0 136 -56q59 -61 59 -214v-16h-305v-12q0 -66 29 -112.5t102.5 -46.5t127.5 48l34 -55q-71 -64 -178 -64q-57 0 -104.5 26.5t-59.5 56.5q-23 -30 -65 -58t-93 -28t-79.5 10.5t-48.5 29.5q-41 40 -41 116.5t65 121.5t188 45l37 -1v44 q0 45 -15 67t-63 22q-77 0 -154 -57l-42 66q103 66 210 66q78 0 124 -59zM596.5 408q-27.5 39 -76.5 39t-76.5 -37t-27.5 -111h208q0 70 -27.5 109zM141 140q0 -87 79 -87q67 0 105 66l2 127l-29 2q-94 0 -134 -38q-23 -22 -23 -70z" />
<glyph unicode="&#xe7;" horiz-adv-x="440" d="M248 -42q67 -10 67 -73q0 -33 -26.5 -58t-59.5 -25q-48 0 -92 23l22 48q32 -15 51 -15t29.5 8.5t10.5 20.5q0 29 -37 29q-10 0 -24 -4l-9 12l19 73q-66 16 -109 76t-43 157t22 150t70 95t110.5 42t88.5 -13q33 -18 59 -40l-48 -62q-45 38 -88 38q-63 0 -87.5 -51 t-24.5 -155t40 -143q28 -30 79.5 -30t96.5 51l45 -56q-10 -12 -21 -20l-21 -15q-48 -31 -112 -31z" />
<glyph unicode="&#xe8;" horiz-adv-x="485" d="M148 231v-12q0 -66 29.5 -112.5t102.5 -46.5t127 48l35 -55q-73 -64 -175 -64t-162 71t-60 194t59.5 193t147 70t130.5 -44t57 -91.5t14 -134.5v-16h-305zM254 447q-52 0 -78.5 -39t-26.5 -109h208q0 106 -62 139q-18 9 -41 9zM337 563l-217 102l44 85l201 -133z" />
<glyph unicode="&#xe9;" horiz-adv-x="485" d="M148 231v-12q0 -66 29.5 -112.5t102.5 -46.5t127 48l35 -55q-73 -64 -175 -64t-162 71t-60 194t59.5 193t147 70t130.5 -44t57 -91.5t14 -134.5v-16h-305zM254 447q-52 0 -78.5 -39t-26.5 -109h208q0 106 -62 139q-18 9 -41 9zM178 563l-29 54l201 133l45 -85z" />
<glyph unicode="&#xea;" horiz-adv-x="485" d="M148 231v-12q0 -66 29.5 -112.5t102.5 -46.5t127 48l35 -55q-73 -64 -175 -64t-162 71t-60 194t59.5 193t147 70t130.5 -44t57 -91.5t14 -134.5v-16h-305zM254 447q-52 0 -78.5 -39t-26.5 -109h208q0 106 -62 139q-18 9 -41 9zM394 558l-138 86l-134 -86l-32 51l169 138 l171 -138z" />
<glyph unicode="&#xeb;" horiz-adv-x="485" d="M148 231v-12q0 -66 29.5 -112.5t102.5 -46.5t127 48l35 -55q-73 -64 -175 -64t-162 71t-60 194t59.5 193t147 70t130.5 -44t57 -91.5t14 -134.5v-16h-305zM254 447q-52 0 -78.5 -39t-26.5 -109h208q0 106 -62 139q-18 9 -41 9zM411 583q-17 -19 -41.5 -19t-41.5 18 t-17 44.5t17 44.5t41.5 18t41.5 -18t17 -43.5t-17 -44.5zM202.5 582.5q-17.5 -18.5 -42 -18.5t-41 18.5t-16.5 44.5t17 44t41 18t41.5 -18.5t17.5 -44t-17.5 -44z" />
<glyph unicode="&#xec;" horiz-adv-x="255" d="M79 0v498l95 15v-513h-95zM206 563l-217 102l44 85l201 -133z" />
<glyph unicode="&#xed;" horiz-adv-x="255" d="M79 0v498l95 15v-513h-95zM78 563l-29 54l201 133l45 -85z" />
<glyph unicode="&#xee;" horiz-adv-x="255" d="M79 0v498l95 15v-513h-95zM267 558l-138 86l-134 -86l-32 51l169 138l171 -138z" />
<glyph unicode="&#xef;" horiz-adv-x="255" d="M79 0v498l95 15v-513h-95zM281 583q-17 -19 -41.5 -19t-41.5 18t-17 44.5t17 44.5t41.5 18t41.5 -18t17 -43.5t-17 -44.5zM72.5 582.5q-17.5 -18.5 -42 -18.5t-41 18.5t-16.5 44.5t17 44t41 18t41.5 -18.5t17.5 -44t-17.5 -44z" />
<glyph unicode="&#xf1;" horiz-adv-x="533" d="M81 373q0 69 -19 119l87 24q17 -34 17 -77l32 27q57 47 126 47q40 0 72 -19q58 -34 58 -115v-379h-91v338q0 35 -3 50q-10 47 -64 47q-27 0 -62.5 -18.5t-61.5 -45.5v-371h-91v373zM440 653q-50 -66 -112 -66q-34 0 -73 21t-61.5 21t-35.5 -8.5t-31 -29.5l-31 52 q26 34 51.5 49.5t61 15.5t70.5 -20.5t59.5 -20.5t38 8.5t32.5 29.5z" />
<glyph unicode="&#xf2;" horiz-adv-x="535" d="M421 56q-59 -70 -159.5 -70t-158.5 71t-58 193t58 193.5t160.5 71.5t159.5 -75.5t57 -194.5t-59 -189zM264 57q113 0 113 185q0 111 -29.5 156.5t-88 45.5t-85.5 -44t-27 -147.5t28.5 -149.5t88.5 -46zM337 563l-217 102l44 85l201 -133z" />
<glyph unicode="&#xf3;" horiz-adv-x="535" d="M421 56q-59 -70 -159.5 -70t-158.5 71t-58 193t58 193.5t160.5 71.5t159.5 -75.5t57 -194.5t-59 -189zM264 57q113 0 113 185q0 111 -29.5 156.5t-88 45.5t-85.5 -44t-27 -147.5t28.5 -149.5t88.5 -46zM196 563l-29 54l201 133l45 -85z" />
<glyph unicode="&#xf4;" horiz-adv-x="535" d="M421 56q-59 -70 -159.5 -70t-158.5 71t-58 193t58 193.5t160.5 71.5t159.5 -75.5t57 -194.5t-59 -189zM264 57q113 0 113 185q0 111 -29.5 156.5t-88 45.5t-85.5 -44t-27 -147.5t28.5 -149.5t88.5 -46zM398 558l-138 86l-134 -86l-32 51l169 138l171 -138z" />
<glyph unicode="&#xf5;" horiz-adv-x="535" d="M421 56q-59 -70 -159.5 -70t-158.5 71t-58 193t58 193.5t160.5 71.5t159.5 -75.5t57 -194.5t-59 -189zM264 57q113 0 113 185q0 111 -29.5 156.5t-88 45.5t-85.5 -44t-27 -147.5t28.5 -149.5t88.5 -46zM440 653q-50 -66 -112 -66q-34 0 -73 21t-61.5 21t-35.5 -8.5 t-31 -29.5l-31 52q26 34 51.5 49.5t61 15.5t70.5 -20.5t59.5 -20.5t38 8.5t32.5 29.5z" />
<glyph unicode="&#xf6;" horiz-adv-x="535" d="M421 56q-59 -70 -159.5 -70t-158.5 71t-58 193t58 193.5t160.5 71.5t159.5 -75.5t57 -194.5t-59 -189zM264 57q113 0 113 185q0 111 -29.5 156.5t-88 45.5t-85.5 -44t-27 -147.5t28.5 -149.5t88.5 -46zM407 583q-17 -19 -41.5 -19t-41.5 18t-17 44.5t17 44.5t41.5 18 t41.5 -18t17 -43.5t-17 -44.5zM198.5 582.5q-17.5 -18.5 -42 -18.5t-41 18.5t-16.5 44.5t17 44t41 18t41.5 -18.5t17.5 -44t-17.5 -44z" />
<glyph unicode="&#xf7;" horiz-adv-x="841" d="M719 589q-27 0 -46 19t-19 46.5t19 47.5t46 20t46.5 -19.5t19.5 -47t-19.5 -47t-46.5 -19.5zM596 646q-34 16 -62 16q-66 0 -66 -80v-81h298v-501h-95v436h-203v-436h-93v436h-194v-436h-93v436h-48v65h49l-2 80q0 83 61 128q28 21 74 21q78 0 121 -27l-31 -60 q-38 19 -65 19q-67 0 -67 -80v-81h196l-2 80q0 84 62 128q29 21 90.5 21t100.5 -24z" />
<glyph unicode="&#xf8;" horiz-adv-x="551" d="M424 453q67 -74 67 -207q0 -72 -16.5 -118t-55.5 -85q-58 -58 -134 -58t-121 31l-52 -88l-47 28l55 95q-64 73 -64 197t58 195.5t157 71.5q61 0 110 -26l52 88l48 -29zM340 420q-30 24 -65.5 24t-60 -14.5t-35.5 -39.5q-21 -46 -21 -121.5t16 -129.5zM275 56q73 0 89 50 q24 76 24 140t-17 117l-167 -282q35 -25 71 -25z" />
<glyph unicode="&#xf9;" horiz-adv-x="543" d="M222 -17q-48 0 -83.5 20t-49.5 51t-14 88v356l91 18v-349q0 -66 23.5 -88t57 -22t66 22.5t48.5 56.5v360l91 18v-377q0 -78 31 -104l-63 -50q-35 27 -47 72q-59 -72 -151 -72zM360 563l-217 102l44 85l201 -133z" />
<glyph unicode="&#xfa;" horiz-adv-x="543" d="M222 -17q-48 0 -83.5 20t-49.5 51t-14 88v356l91 18v-349q0 -66 23.5 -88t57 -22t66 22.5t48.5 56.5v360l91 18v-377q0 -78 31 -104l-63 -50q-35 27 -47 72q-59 -72 -151 -72zM189 563l-29 54l201 133l45 -85z" />
<glyph unicode="&#xfb;" horiz-adv-x="543" d="M222 -17q-48 0 -83.5 20t-49.5 51t-14 88v356l91 18v-349q0 -66 23.5 -88t57 -22t66 22.5t48.5 56.5v360l91 18v-377q0 -78 31 -104l-63 -50q-35 27 -47 72q-59 -72 -151 -72zM401 558l-138 86l-134 -86l-32 51l169 138l171 -138z" />
<glyph unicode="&#xfc;" horiz-adv-x="543" d="M222 -17q-48 0 -83.5 20t-49.5 51t-14 88v356l91 18v-349q0 -66 23.5 -88t57 -22t66 22.5t48.5 56.5v360l91 18v-377q0 -78 31 -104l-63 -50q-35 27 -47 72q-59 -72 -151 -72zM410 583q-17 -19 -41.5 -19t-41.5 18t-17 44.5t17 44.5t41.5 18t41.5 -18t17 -43.5t-17 -44.5 zM201.5 582.5q-17.5 -18.5 -42 -18.5t-41 18.5t-16.5 44.5t17 44t41 18t41.5 -18.5t17.5 -44t-17.5 -44z" />
<glyph unicode="&#xfd;" horiz-adv-x="475" d="M108 575l-29 54l201 133l45 -85zM289 -16q-20 -59 -39 -96q-45 -82 -139 -101l-29 60q51 13 75 42.5t32 49.5t21 63l-36 -5q-16 72 -48 167l-111 329l93 21l96 -315q16 -56 29 -118h6q14 60 34 124l89 296h102z" />
<glyph unicode="&#xff;" horiz-adv-x="475" d="M289 -16q-20 -59 -39 -96q-45 -82 -139 -101l-29 60q51 13 75 42.5t32 49.5t21 63l-36 -5q-16 72 -48 167l-111 329l93 21l96 -315q16 -56 29 -118h6q14 60 34 124l89 296h102zM384 583q-17 -19 -41.5 -19t-41.5 18t-17 44.5t17 44.5t41.5 18t41.5 -18t17 -43.5 t-17 -44.5zM175.5 582.5q-17.5 -18.5 -42 -18.5t-41 18.5t-16.5 44.5t17 44t41 18t41.5 -18.5t17.5 -44t-17.5 -44z" />
<glyph unicode="&#x131;" horiz-adv-x="255" d="M79 0v498l95 15v-513h-95z" />
<glyph unicode="&#x152;" horiz-adv-x="851" d="M381 0q-98 0 -143 10t-97 52q-104 82 -104 283q0 82 18.5 143t65 119t105 70t127.5 12h440l-12 -79h-265v-210h221v-81h-221v-236h292v-83h-427zM323 76q47 0 99 9v514l-47 5q-29 3 -52.5 3t-66 -10t-66.5 -53q-42 -77 -42 -173t10 -145.5t49 -99.5t116 -50z" />
<glyph unicode="&#x153;" horiz-adv-x="833" d="M115 443.5q58 71.5 158.5 71.5t160.5 -76q23 35 63.5 56.5t91.5 21.5q98 0 148 -64t50 -184v-38h-305v-25q0 -72 38 -109t102.5 -37t118.5 48l34 -55q-71 -64 -180 -64t-156 77q-57 -80 -161.5 -80t-162.5 71t-58 193t58 193.5zM588 447q-50 0 -77.5 -37t-27.5 -111h208 q0 68 -26.5 108t-76.5 40zM272 444q-58 0 -85.5 -43t-27.5 -145.5t26.5 -150.5t90 -48t88.5 52t25 148q0 187 -117 187z" />
<glyph unicode="&#x178;" horiz-adv-x="537" d="M311 0h-100v276l-218 413h118l114 -235q19 -39 38 -89l40 88l116 236h112l-220 -415v-274zM425 743q-17 -19 -41.5 -19t-41.5 18t-17 44.5t17 44.5t41.5 18t41.5 -18t17 -43.5t-17 -44.5zM216.5 742.5q-17.5 -18.5 -42 -18.5t-41 18.5t-16.5 44.5t17 44t41 18t41.5 -18.5 t17.5 -44t-17.5 -44z" />
<glyph unicode="&#x2c6;" horiz-adv-x="656" d="M484 300l-157 320l-156 -320h-91l203 408h88l203 -408h-90z" />
<glyph unicode="&#x2c9;" horiz-adv-x="400" d="M55 677v63h281v-63h-281z" />
<glyph unicode="&#x2da;" horiz-adv-x="315" d="M151 554q-42 0 -71 31t-29 75t30 75t71.5 31t71.5 -31t30 -74.5t-30.5 -75t-72.5 -31.5zM195 705q-17 18 -42 18t-43 -18t-18 -44.5t17.5 -45t42.5 -18.5t42.5 18.5t17.5 45t-17 44.5z" />
<glyph unicode="&#x2dc;" horiz-adv-x="225" d="M172 126q-50 -66 -112 -66q-34 0 -73 21t-61.5 21t-35.5 -8.5t-31 -29.5l-31 52q26 34 51.5 49.5t61 15.5t70.5 -20.5t59.5 -20.5t38 8.5t32.5 29.5z" />
<glyph unicode="&#x302;" horiz-adv-x="402" d="M330 558l-138 86l-134 -86l-32 51l169 138l171 -138z" />
<glyph unicode="&#x303;" horiz-adv-x="383" d="M358 653q-50 -66 -112 -66q-34 0 -73 21t-61.5 21t-35.5 -8.5t-31 -29.5l-31 52q26 34 51.5 49.5t61 15.5t70.5 -20.5t59.5 -20.5t38 8.5t32.5 29.5z" />
<glyph unicode="&#x2000;" horiz-adv-x="474" />
<glyph unicode="&#x2001;" horiz-adv-x="948" />
<glyph unicode="&#x2002;" horiz-adv-x="474" />
<glyph unicode="&#x2003;" horiz-adv-x="948" />
<glyph unicode="&#x2004;" horiz-adv-x="316" />
<glyph unicode="&#x2005;" horiz-adv-x="237" />
<glyph unicode="&#x2006;" horiz-adv-x="158" />
<glyph unicode="&#x2007;" horiz-adv-x="158" />
<glyph unicode="&#x2008;" horiz-adv-x="118" />
<glyph unicode="&#x2009;" horiz-adv-x="189" />
<glyph unicode="&#x200a;" horiz-adv-x="52" />
<glyph unicode="&#x2010;" horiz-adv-x="312" d="M55 225v91h203v-91h-203z" />
<glyph unicode="&#x2011;" horiz-adv-x="312" d="M55 225v91h203v-91h-203z" />
<glyph unicode="&#x2013;" horiz-adv-x="481" d="M0 240v75h481v-75h-481z" />
<glyph unicode="&#x2014;" horiz-adv-x="960" d="M124 240v75h705v-75h-705z" />
<glyph unicode="&#x2018;" horiz-adv-x="263" d="M160 635q-19 -22 -19 -36.5t11.5 -21.5t22.5 -13q30 -16 30 -51.5t-21 -57.5t-54.5 -22t-57 28.5t-23.5 80.5t35 99.5t90 71.5l32 -45q-27 -11 -46 -33z" />
<glyph unicode="&#x2019;" horiz-adv-x="262" d="M91 502q19 22 19 36.5t-11.5 21.5t-22.5 13q-30 16 -30 51.5t21 57.5t54.5 22t57 -28.5t23.5 -80.5t-35 -99.5t-90 -71.5l-32 45q27 11 46 33z" />
<glyph unicode="&#x201a;" horiz-adv-x="267" d="M98 -65q19 22 19 36.5t-11.5 21.5t-22.5 13q-30 16 -30 51.5t21 57.5t54.5 22t57 -28.5t23.5 -80.5t-35 -99.5t-90 -71.5l-32 45q27 11 46 33z" />
<glyph unicode="&#x201c;" horiz-adv-x="464" d="M367 635q-19 -22 -19 -36.5t11.5 -21.5t22.5 -13q30 -16 30 -51.5t-21 -57.5t-54.5 -22t-57 28.5t-23.5 80.5t35 99.5t90 71.5l32 -45q-27 -11 -46 -33zM160 635q-19 -22 -19 -36.5t11.5 -21.5t22.5 -13q30 -16 30 -51.5t-21 -57.5t-54.5 -22t-57 28.5t-23.5 80.5 t35 99.5t90 71.5l32 -45q-27 -11 -46 -33z" />
<glyph unicode="&#x201d;" horiz-adv-x="464" d="M91 502q19 22 19 36.5t-11.5 21.5t-22.5 13q-30 16 -30 51.5t21 57.5t54.5 22t57 -28.5t23.5 -80.5t-35 -99.5t-90 -71.5l-32 45q27 11 46 33zM298 502q19 22 19 36.5t-11.5 21.5t-22.5 13q-30 16 -30 51.5t21 57.5t54.5 22t57 -28.5t23.5 -80.5t-35 -99.5t-90 -71.5 l-32 45q27 11 46 33z" />
<glyph unicode="&#x201e;" horiz-adv-x="469" d="M306 -65q19 22 19 36.5t-11.5 21.5t-22.5 13q-30 16 -30 51.5t21 57.5t54.5 22t57 -28.5t23.5 -80.5t-35 -99.5t-90 -71.5l-32 45q27 11 46 33zM97 -65q19 22 19 36.5t-11.5 21.5t-22.5 13q-30 16 -30 51.5t21 57.5t54.5 22t57 -28.5t23.5 -80.5t-35 -99.5t-90 -71.5 l-32 45q27 11 46 33z" />
<glyph unicode="&#x2022;" horiz-adv-x="500" d="M246 178q-72 0 -122.5 51.5t-50.5 125.5t50.5 125.5t123 51.5t123 -51.5t50.5 -125t-51 -125.5t-123 -52z" />
<glyph unicode="&#x2026;" horiz-adv-x="703" d="M639.5 8.5q-21.5 -22.5 -51 -22.5t-50 22.5t-20.5 54t20 52.5t50 21t51.5 -21.5t21.5 -52.5t-21.5 -53.5zM402 9q-21 -23 -50.5 -23t-50 22.5t-20.5 54t20 52.5t50 21t51 -21t21 -52t-21 -54zM165 9q-21 -23 -51 -23t-50.5 22.5t-20.5 54t20 52.5t50 21t51.5 -21.5 t21.5 -52t-21 -53.5z" />
<glyph unicode="&#x202f;" horiz-adv-x="189" />
<glyph unicode="&#x2039;" horiz-adv-x="315" d="M199 23l-146 221l146 222l63 -44l-116 -178l115 -179z" />
<glyph unicode="&#x203a;" horiz-adv-x="315" d="M115 23l-62 42l117 179l-118 177l63 45l146 -222z" />
<glyph unicode="&#x205f;" horiz-adv-x="237" />
<glyph unicode="&#x2122;" horiz-adv-x="1001" d="M863 296v324l-8 -2l-122 -322h-50l-123 322l-6 1v-323h-75v412h114l116 -305l116 305h113v-412h-75zM262 637v-341h-75v341h-126v71h327v-71h-126z" />
</font>
</defs>
</svg>
